#TITLE:just communication;
#SUBTITLE:;
#ARTIST:Two Mix;
#TITLETRANSLIT:;
#SUBTITLETRANSLIT:;
#ARTISTTRANSLIT:;
#CREDIT:;
#BANNER:just communication-logo.jpg;
#BACKGROUND:just communication.jpg;
#LYRICSPATH:;
#CDTITLE:Lan.png;
#MUSIC:just communication.mp3;
#OFFSET:-0.040;
#SAMPLESTART:100.000;
#SAMPLELENGTH:12.000;
#SELECTABLE:YES;
#BPMS:0.000=132.000;
#STOPS:;
#BGCHANGES:;
// cache tags:
#FIRSTBEAT:4.000;
#LASTBEAT:316.000;
#SONGFILENAME:Songs/SDO/just communication/just communication.sm;
#HASMUSIC:1;
#HASBANNER:1;
#MUSICLENGTH:148.645;
// end cache tags

//---------------dance-single - sky----------------
#NOTES:
     dance-single:
     sky:
     Hard:
     10:
     0.916,1.000,1.000,0.007,0.844,780.000,171.000,1.000,0.000,1.000:

0000
0000
0000
0000
,
0100
0000
0001
0000
1000
0000
0100
0000
0001
0000
0010
1000
0000
0001
0100
0000
,
1000
0000
0001
0000
0010
0000
1000
0000
0001
0000
0100
0010
0000
1000
0001
0000
,
0100
0000
0010
0000
1000
0000
0001
0000
0100
0000
0010
0001
1000
0010
0100
0000
,
1000
0000
0001
0000
0010
0000
1000
0000
0001
0000
0100
0010
0001
1000
0010
0000
,
0100
0000
0001
0000
0100
0000
0010
0000
1000
0000
0001
0100
0010
1000
0001
0000
,
0100
0010
1000
0100
0001
1000
0010
0100
1000
0001
0100
0010
0001
0100
0010
1000
,
0011
0000
0000
0000
0100
0000
0000
0000
1010
0000
0000
0000
0100
0000
0010
0001
,
1100
0000
0000
0010
1000
0000
0100
0000
1010
0000
0000
0000
0001
0000
0000
0000
,
0110
0000
0000
0000
0001
0000
0000
0000
1010
0000
0000
0000
0001
0000
0100
0010
,
0101
0000
0000
0100
0010
0000
0001
0000
1010
0000
0000
0000
0100
0000
0000
0000
,
1100
0010
0001
0100
0010
0000
1000
0000
,
0011
0100
0010
1000
0010
0000
0100
0000
,
1010
0100
1000
0010
0001
0000
0001
0010
,
0101
0000
0000
0011
0000
0000
1100
0000
0011
0000
0000
1100
0000
0000
0110
0000
,
1010
0100
0001
0100
1000
0001
0100
0010
1000
0100
0001
0010
1000
0100
0001
1000
,
0100
0010
0100
0001
1000
0100
0001
0010
0100
0001
1000
0010
0100
0001
1000
0010
,
0100
0001
1000
0010
0100
0001
1000
0010
0100
0001
0010
1000
0100
0001
1000
0010
,
0100
1000
0001
0010
1000
0100
0001
0100
0010
1000
0001
0100
0010
1000
0001
0100
,
1010
0100
1010
0001
1010
0100
1010
0001
1010
0100
1010
0001
1010
0100
1010
0001
,
1010
0100
1010
0100
0011
0100
1010
0100
0011
0100
1010
0100
0011
0100
1010
0100
,
0011
1000
0101
0010
0101
1000
0101
0010
0101
1000
0101
0010
0101
1000
0101
0010
,
1001
0100
1010
0001
1010
0100
1010
0001
1010
0100
1010
0001
1010
0100
1010
0001
,
1010
0001
0110
1000
0110
0001
0110
1000
0110
0001
0110
1000
0110
0001
0110
1000
,
0110
1000
0101
0010
1100
0010
0101
0010
1100
0010
0101
0010
1100
0010
0101
0010
,
0101
1000
0101
0010
0101
1000
0101
0010
0101
1000
0101
0010
0101
1000
0101
0010
,
0101
1000
0110
0001
0110
1000
0110
0001
0110
1000
0110
0001
0110
1000
0110
0001
,
1010
0000
0010
0100
0010
0000
1000
0000
0001
0000
0010
0000
1000
0000
0100
0000
,
0011
0000
0100
0001
1000
0000
0100
0000
0001
0000
1000
0000
0001
0000
0100
0000
,
1010
0000
0100
0010
0001
0000
0100
0000
0010
0000
1000
0000
0100
0000
0001
0000
,
0110
0000
0001
1000
0010
0000
0100
0000
0001
0000
1000
0000
0010
0000
0001
0000
,
1100
0000
0010
0001
1000
0000
0100
0000
0001
0000
1000
0000
0100
0000
0001
0000
,
0101
0000
1000
0010
0100
0000
0001
0000
0010
0000
1000
0000
0100
0000
0001
0000
,
0011
0000
0100
1000
0100
0000
0010
0000
1000
0000
0100
0000
0001
0000
0010
0000
,
0110
0000
1000
0010
0001
0000
0100
0000
1000
0000
0100
0000
0001
0000
0010
0000
,
1000
0010
0100
0001
0010
1000
0100
0001
,
0010
1000
0001
0010
1000
0100
0001
1000
,
0100
0001
0010
1000
0100
0001
1000
0100
,
0010
0100
0001
0010
1000
0100
0001
0010
,
1000
0001
0010
1000
0100
0001
1000
0010
,
0001
1000
0010
0100
0001
0010
1000
0100
,
0001
0100
0001
1000
0010
0100
0001
0100
,
1000
0010
0100
0001
1000
0100
0001
0010
1000
0100
0001
0010
1000
0100
0001
0010
,
0110
0000
0010
0000
1000
0010
0100
0000
0101
1000
0010
0100
0001
0010
0001
0100
,
1010
0000
0010
0000
0100
0010
1000
0000
0100
0010
0001
1000
0010
0100
0001
0010
,
1100
0000
0001
0000
0100
0010
0001
0000
0010
1000
0100
0001
1000
0100
1000
0001
,
1010
0000
0010
0000
0100
0001
1000
0000
0100
0010
0100
0001
1000
0010
0100
0001
,
1010
0100
0010
1000
0110
0001
1000
0010
,
0101
1000
0100
0001
1100
0010
1000
0001
,
0100
1000
0010
0100
0011
0001
0010
0100
,
1010
0100
0001
1000
0110
0001
0010
1000
,
0010
0000
0100
0000
0010
0001
1010
0101
,
0000
0000
0010
0000
0100
0010
1100
0110
,
0000
0000
0010
0000
0001
1000
0011
1010
,
0000
0000
0011
0000
0110
1000
0100
0010
0001
0000
0000
0001
0010
0100
1000
0000
,
0101
0000
0001
0000
0100
1000
0101
0011
,
0000
0000
0100
0000
0010
1000
0110
0011
,
0000
0000
0001
0000
0100
0001
1100
0101
,
0000
0000
0000
0100
0001
0000
0010
0100
,
0010
0000
0001
0000
1000
0000
0001
0010
,
0100
0000
0010
0000
1000
0000
0100
0010
,
0001
0000
0010
0000
,
1000
0000
0010
0001
0010
0000
0100
1000
,
0101
0000
0110
0000
,
1010
0000
0000
0101
0000
0000
1100
0000
0011
0100
1000
0100
0010
0001
0010
0100
,
1010
0001
0010
0100
1100
0010
0100
0010
0101
1000
0010
0100
1001
0010
0001
0100
,
1010
0100
0010
1000
0101
0010
1000
0001
0110
0010
0001
1000
0110
0100
0001
0010
,
1100
0001
0010
0001
1100
0010
0001
1000
0110
1000
0100
0001
1010
0100
1000
0001
,
1010
0001
0010
1000
0110
0001
1000
0010
1100
0010
0100
0001
1010
0010
0100
0001
,
1010
0100
0010
0100
1001
0010
0100
0010
0101
1000
0010
0100
0011
0100
0001
0100
,
1010
0100
0010
1000
0101
0010
1000
0001
0110
0010
0001
1000
1010
0100
0001
0010
,
1100
0010
0001
0010
1100
0010
0001
0100
0011
1000
0100
0001
1010
0100
1000
0001
,
1010
0100
0010
1000
0110
0001
1000
0010
0101
0010
0100
0001
1100
0010
0100
0001
,
1010
0000
0000
0000
0000
0000
0010
1000
0001
0100
0000
0000
0000
0001
1000
0100
,
0011
0000
0000
0000
0000
1000
0001
0100
0000
1010
0000
0101
0000
0110
0000
1100
,
0011
0000
0000
0000
0000
0000
0010
1000
0001
0100
0000
0000
0000
0001
1000
0010
,
0100
0000
0000
0000
0000
0010
1000
0001
0000
0110
0000
0011
0000
1010
0000
0101
,
1010
0000
0000
0000
0110
0000
0000
0000
1100
0000
0011
0000
1000
0100
0010
0001
,
0020
0000
0000
0000
,
1131
0000
0000
0000
;
